Loading...
Error
 

Скачать торрент (Synthwave / Synthpop / Electronic) Mitch Murder - Burning Chrome (2010) [FLAC, (tracks), lossless]

 
Автор Сообщение

Слава2312

post 12-Мар-19 19:54

pic


pic

Жанр: Synthwave / Synthpop / Electronic
Год издания данного носителя: 2010
Страна-производитель носителя: US
Лейбл: Rosso Corsa Records
Каталоговый номер: RCR003
Аудио кодек: FLAC
Тип рипа: tracks
Битрейт аудио: lossless [24/44,1]
Продолжительность: 00:35:36
Источник (релизер): pic pic
Треклист:
[1:14] 01. Mitch Murder - Off World Prelude
[4:38] 02. Mitch Murder - The Heat Is On
[3:37] 03. Mitch Murder - Midnight Mall
[3:10] 04. Mitch Murder - Action Bike
[2:28] 05. Mitch Murder - beach interlude
[3:53] 06. Mitch Murder - Montage
[3:08] 07. Mitch Murder - Hollywood Heights
[5:10] 08. Mitch Murder - Running Out Of Time
[4:30] 09. Mitch Murder - Ravaged Skies
[3:48] 10. Mitch Murder - End Theme
AUDIOCHECKER

Код:



AUDIOCHECKER v2.0 beta (build 457) - by Dester
~~~~~~~~~~~~~~~~~~~~~~~~~~~~~~~~~~
-=== НЕ РЕДАКТИРУЙТЕ ЭТОТ ФАЙЛ! ===-

Путь: ...\Mitch Murder - Burning Chrome [2010] Flac

01 -=- 01. Off World Prelude.flac -=- ERROR
02 -=- 02. The Heat Is On.flac -=- ERROR
03 -=- 03. Midnight Mall.flac -=- ERROR
04 -=- 04. Action Bike.flac -=- ERROR
05 -=- 05. beach interlude.flac -=- ERROR
06 -=- 06. Montage.flac -=- ERROR
07 -=- 07. Hollywood Heights.flac -=- ERROR
08 -=- 08. Running Out Of Time.flac -=- ERROR
09 -=- 09. Ravaged Skies.flac -=- ERROR
10 -=- 10. End Theme.flac -=- ERROR

MediaInfo

Код:

Общее
Полное имя                               : D:\Music\Mitch Murder - Burning Chrome [2010] Flac\01. Off World Prelude.flac
Формат                                   : FLAC
Формат/Информация                        : Free Lossless Audio Codec
Размер файла                             : 11,3 Мбайт
Продолжительность                        : 1 м. 13 с.
Режим общего битрейта                    : Переменный
Общий поток                              : 1286 Кбит/сек
Альбом                                   : Burning Chrome
Альбом/Исполнитель                       : Mitch Murder
Трек                                     : Off World Prelude
Трек/Положение                           : 1
Исполнитель                              : Mitch Murder
Дата записи                              : 2010
Обложка                                  : Yes
Тип обложки                              : Cover (front)
MIME-тип обложки                         : image/jpeg
Примечание                               : Visit http://rossocorsarecords.bandcamp.com

Аудио
Формат                                   : FLAC
Формат/Информация                        : Free Lossless Audio Codec
Продолжительность                        : 1 м. 13 с.
Вид битрейта                             : Переменный
Битрейт                                  : 1282 Кбит/сек
Каналы                                   : 2 канала
Channel layout                           : L R
Частота                                  : 44,1 КГц
Битовая глубина                          : 24 бит
Метод сжатия                             : Без потерь
Размер потока                            : 11,3 Мбайт (100%)
Библиотека кодирования                   : libFLAC 1.3.0 (UTC 2013-05-26)

Общее
Полное имя                               : D:\Music\Mitch Murder - Burning Chrome [2010] Flac\02. The Heat Is On.flac
Формат                                   : FLAC
Формат/Информация                        : Free Lossless Audio Codec
Размер файла                             : 53,5 Мбайт
Продолжительность                        : 4 м. 38 с.
Режим общего битрейта                    : Переменный
Общий поток                              : 1612 Кбит/сек
Альбом                                   : Burning Chrome
Альбом/Исполнитель                       : Mitch Murder
Трек                                     : The Heat Is On
Трек/Положение                           : 2
Исполнитель                              : Mitch Murder
Дата записи                              : 2010
Обложка                                  : Yes
Тип обложки                              : Cover (front)
MIME-тип обложки                         : image/jpeg
Примечание                               : Visit http://rossocorsarecords.bandcamp.com

Аудио
Формат                                   : FLAC
Формат/Информация                        : Free Lossless Audio Codec
Продолжительность                        : 4 м. 38 с.
Вид битрейта                             : Переменный
Битрейт                                  : 1611 Кбит/сек
Каналы                                   : 2 канала
Channel layout                           : L R
Частота                                  : 44,1 КГц
Битовая глубина                          : 24 бит
Метод сжатия                             : Без потерь
Размер потока                            : 53,4 Мбайт (100%)
Библиотека кодирования                   : libFLAC 1.3.0 (UTC 2013-05-26)

Общее
Полное имя                               : D:\Music\Mitch Murder - Burning Chrome [2010] Flac\03. Midnight Mall.flac
Формат                                   : FLAC
Формат/Информация                        : Free Lossless Audio Codec
Размер файла                             : 42,8 Мбайт
Продолжительность                        : 3 м. 37 с.
Режим общего битрейта                    : Переменный
Общий поток                              : 1653 Кбит/сек
Альбом                                   : Burning Chrome
Альбом/Исполнитель                       : Mitch Murder
Трек                                     : Midnight Mall
Трек/Положение                           : 3
Исполнитель                              : Mitch Murder
Дата записи                              : 2010
Обложка                                  : Yes
Тип обложки                              : Cover (front)
MIME-тип обложки                         : image/jpeg
Примечание                               : Visit http://rossocorsarecords.bandcamp.com

Аудио
Формат                                   : FLAC
Формат/Информация                        : Free Lossless Audio Codec
Продолжительность                        : 3 м. 37 с.
Вид битрейта                             : Переменный
Битрейт                                  : 1652 Кбит/сек
Каналы                                   : 2 канала
Channel layout                           : L R
Частота                                  : 44,1 КГц
Битовая глубина                          : 24 бит
Метод сжатия                             : Без потерь
Размер потока                            : 42,8 Мбайт (100%)
Библиотека кодирования                   : libFLAC 1.3.0 (UTC 2013-05-26)

Общее
Полное имя                               : D:\Music\Mitch Murder - Burning Chrome [2010] Flac\04. Action Bike.flac
Формат                                   : FLAC
Формат/Информация                        : Free Lossless Audio Codec
Размер файла                             : 38,4 Мбайт
Продолжительность                        : 3 м. 10 с.
Режим общего битрейта                    : Переменный
Общий поток                              : 1695 Кбит/сек
Альбом                                   : Burning Chrome
Альбом/Исполнитель                       : Mitch Murder
Трек                                     : Action Bike
Трек/Положение                           : 4
Исполнитель                              : Mitch Murder
Дата записи                              : 2010
Обложка                                  : Yes
Тип обложки                              : Cover (front)
MIME-тип обложки                         : image/jpeg
Примечание                               : Visit http://rossocorsarecords.bandcamp.com

Аудио
Формат                                   : FLAC
Формат/Информация                        : Free Lossless Audio Codec
Продолжительность                        : 3 м. 10 с.
Вид битрейта                             : Переменный
Битрейт                                  : 1693 Кбит/сек
Каналы                                   : 2 канала
Channel layout                           : L R
Частота                                  : 44,1 КГц
Битовая глубина                          : 24 бит
Метод сжатия                             : Без потерь
Размер потока                            : 38,4 Мбайт (100%)
Библиотека кодирования                   : libFLAC 1.3.0 (UTC 2013-05-26)

Общее
Полное имя                               : D:\Music\Mitch Murder - Burning Chrome [2010] Flac\05. beach interlude.flac
Формат                                   : FLAC
Формат/Информация                        : Free Lossless Audio Codec
Размер файла                             : 28,1 Мбайт
Продолжительность                        : 2 м. 28 с.
Режим общего битрейта                    : Переменный
Общий поток                              : 1590 Кбит/сек
Альбом                                   : Burning Chrome
Альбом/Исполнитель                       : Mitch Murder
Трек                                     : beach interlude
Трек/Положение                           : 5
Исполнитель                              : Mitch Murder
Дата записи                              : 2010
Обложка                                  : Yes
Тип обложки                              : Cover (front)
MIME-тип обложки                         : image/jpeg
Примечание                               : Visit http://rossocorsarecords.bandcamp.com

Аудио
Формат                                   : FLAC
Формат/Информация                        : Free Lossless Audio Codec
Продолжительность                        : 2 м. 28 с.
Вид битрейта                             : Переменный
Битрейт                                  : 1588 Кбит/сек
Каналы                                   : 2 канала
Channel layout                           : L R
Частота                                  : 44,1 КГц
Битовая глубина                          : 24 бит
Метод сжатия                             : Без потерь
Размер потока                            : 28,0 Мбайт (100%)
Библиотека кодирования                   : libFLAC 1.3.0 (UTC 2013-05-26)

Общее
Полное имя                               : D:\Music\Mitch Murder - Burning Chrome [2010] Flac\06. Montage.flac
Формат                                   : FLAC
Формат/Информация                        : Free Lossless Audio Codec
Размер файла                             : 43,4 Мбайт
Продолжительность                        : 3 м. 52 с.
Режим общего битрейта                    : Переменный
Общий поток                              : 1566 Кбит/сек
Альбом                                   : Burning Chrome
Альбом/Исполнитель                       : Mitch Murder
Трек                                     : Montage
Трек/Положение                           : 6
Исполнитель                              : Mitch Murder
Дата записи                              : 2010
Обложка                                  : Yes
Тип обложки                              : Cover (front)
MIME-тип обложки                         : image/jpeg
Примечание                               : Visit http://rossocorsarecords.bandcamp.com

Аудио
Формат                                   : FLAC
Формат/Информация                        : Free Lossless Audio Codec
Продолжительность                        : 3 м. 52 с.
Вид битрейта                             : Переменный
Битрейт                                  : 1565 Кбит/сек
Каналы                                   : 2 канала
Channel layout                           : L R
Частота                                  : 44,1 КГц
Битовая глубина                          : 24 бит
Метод сжатия                             : Без потерь
Размер потока                            : 43,4 Мбайт (100%)
Библиотека кодирования                   : libFLAC 1.3.0 (UTC 2013-05-26)

Общее
Полное имя                               : D:\Music\Mitch Murder - Burning Chrome [2010] Flac\07. Hollywood Heights.flac
Формат                                   : FLAC
Формат/Информация                        : Free Lossless Audio Codec
Размер файла                             : 34,8 Мбайт
Продолжительность                        : 3 м. 8 с.
Режим общего битрейта                    : Переменный
Общий поток                              : 1553 Кбит/сек
Альбом                                   : Burning Chrome
Альбом/Исполнитель                       : Mitch Murder
Трек                                     : Hollywood Heights
Трек/Положение                           : 7
Исполнитель                              : Mitch Murder
Дата записи                              : 2010
Обложка                                  : Yes
Тип обложки                              : Cover (front)
MIME-тип обложки                         : image/jpeg
Примечание                               : Visit http://rossocorsarecords.bandcamp.com

Аудио
Формат                                   : FLAC
Формат/Информация                        : Free Lossless Audio Codec
Продолжительность                        : 3 м. 8 с.
Вид битрейта                             : Переменный
Битрейт                                  : 1551 Кбит/сек
Каналы                                   : 2 канала
Channel layout                           : L R
Частота                                  : 44,1 КГц
Битовая глубина                          : 24 бит
Метод сжатия                             : Без потерь
Размер потока                            : 34,8 Мбайт (100%)
Библиотека кодирования                   : libFLAC 1.3.0 (UTC 2013-05-26)

Общее
Полное имя                               : D:\Music\Mitch Murder - Burning Chrome [2010] Flac\08. Running Out Of Time.flac
Формат                                   : FLAC
Формат/Информация                        : Free Lossless Audio Codec
Размер файла                             : 57,0 Мбайт
Продолжительность                        : 5 м. 10 с.
Режим общего битрейта                    : Переменный
Общий поток                              : 1542 Кбит/сек
Альбом                                   : Burning Chrome
Альбом/Исполнитель                       : Mitch Murder
Трек                                     : Running Out Of Time
Трек/Положение                           : 8
Исполнитель                              : Mitch Murder
Дата записи                              : 2010
Обложка                                  : Yes
Тип обложки                              : Cover (front)
MIME-тип обложки                         : image/jpeg
Примечание                               : Visit http://rossocorsarecords.bandcamp.com

Аудио
Формат                                   : FLAC
Формат/Информация                        : Free Lossless Audio Codec
Продолжительность                        : 5 м. 10 с.
Вид битрейта                             : Переменный
Битрейт                                  : 1542 Кбит/сек
Каналы                                   : 2 канала
Channel layout                           : L R
Частота                                  : 44,1 КГц
Битовая глубина                          : 24 бит
Метод сжатия                             : Без потерь
Размер потока                            : 57,0 Мбайт (100%)
Библиотека кодирования                   : libFLAC 1.3.0 (UTC 2013-05-26)

Общее
Полное имя                               : D:\Music\Mitch Murder - Burning Chrome [2010] Flac\09. Ravaged Skies.flac
Формат                                   : FLAC
Формат/Информация                        : Free Lossless Audio Codec
Размер файла                             : 52,2 Мбайт
Продолжительность                        : 4 м. 30 с.
Режим общего битрейта                    : Переменный
Общий поток                              : 1621 Кбит/сек
Альбом                                   : Burning Chrome
Альбом/Исполнитель                       : Mitch Murder
Трек                                     : Ravaged Skies
Трек/Положение                           : 9
Исполнитель                              : Mitch Murder
Дата записи                              : 2010
Обложка                                  : Yes
Тип обложки                              : Cover (front)
MIME-тип обложки                         : image/jpeg
Примечание                               : Visit http://rossocorsarecords.bandcamp.com

Аудио
Формат                                   : FLAC
Формат/Информация                        : Free Lossless Audio Codec
Продолжительность                        : 4 м. 30 с.
Вид битрейта                             : Переменный
Битрейт                                  : 1620 Кбит/сек
Каналы                                   : 2 канала
Channel layout                           : L R
Частота                                  : 44,1 КГц
Битовая глубина                          : 24 бит
Метод сжатия                             : Без потерь
Размер потока                            : 52,1 Мбайт (100%)
Библиотека кодирования                   : libFLAC 1.3.0 (UTC 2013-05-26)

Общее
Полное имя                               : D:\Music\Mitch Murder - Burning Chrome [2010] Flac\10. End Theme.flac
Формат                                   : FLAC
Формат/Информация                        : Free Lossless Audio Codec
Размер файла                             : 45,4 Мбайт
Продолжительность                        : 3 м. 48 с.
Режим общего битрейта                    : Переменный
Общий поток                              : 1668 Кбит/сек
Альбом                                   : Burning Chrome
Альбом/Исполнитель                       : Mitch Murder
Трек                                     : End Theme
Трек/Положение                           : 10
Исполнитель                              : Mitch Murder
Дата записи                              : 2010
Обложка                                  : Yes
Тип обложки                              : Cover (front)
MIME-тип обложки                         : image/jpeg
Примечание                               : Visit http://rossocorsarecords.bandcamp.com

Аудио
Формат                                   : FLAC
Формат/Информация                        : Free Lossless Audio Codec
Продолжительность                        : 3 м. 48 с.
Вид битрейта                             : Переменный
Битрейт                                  : 1667 Кбит/сек
Каналы                                   : 2 канала
Channel layout                           : L R
Частота                                  : 44,1 КГц
Битовая глубина                          : 24 бит
Метод сжатия                             : Без потерь
Размер потока                            : 45,3 Мбайт (100%)
Библиотека кодирования                   : libFLAC 1.3.0 (UTC 2013-05-26)

Общее
Полное имя                               : D:\Music\Mitch Murder - Burning Chrome [2010] Flac\audiochecker.log
Размер файла                             : 617 байт

Общее
Полное имя                               : D:\Music\Mitch Murder - Burning Chrome [2010] Flac\cover.png
Формат                                   : PNG
Формат/Информация                        : Portable Network Graphic
Размер файла                             : 126 Кбайт

Изображения
Формат                                   : PNG
Формат/Информация                        : Portable Network Graphic
Format_Compression                       : LZ77
Ширина                                   : 1000 пикселей
Высота                                   : 1000 пикселей
Битовая глубина                          : 24 бит
Метод сжатия                             : Без потерь
Размер потока                            : 126 Кбайт (100%)

Общее
Полное имя                               : D:\Music\Mitch Murder - Burning Chrome [2010] Flac\foo_dr.txt
Размер файла                             : 1,50 Кбайт

Спектрограммы

pic
Mitch Murder - Burning Chrome (2010) Flac.torrent
Трекер: Зарегистрирован

magnet ссылка

 


Скачать .torrent

17 KB

Статус: проверено (by Cherepah в 12-Мар-19 20:10)
Зарегистрирован: 12-Мар-19 20:00
Скачан: 46 раз
Размер: 408 MB | 
Поблагодарили:
Скачать (Synthwave / Synthpop / Electronic) Mitch Murder - Burning Chrome (2010) [FLAC, (tracks), lossless] торрент
 


Похожие раздачи

Текущее время: 24-Июн 20:13

Часовой пояс: GMT + 3



Вы не можете начинать темы
Вы не можете отвечать на сообщения
Вы не можете редактировать свои сообщения
Вы не можете удалять свои сообщения
Вы не можете голосовать в опросах
Вы не можете прикреплять файлы к сообщениям
Вы не можете скачивать файлы